DynamicTR.com | Film indir | Movies Download | Tek Link Film, Dizi, Oyun, Program Download Merkezi | Alternatif Linki En Bol Forum


  Sayfa: [1]
Cevap Ver Yeni Konu Yeni Anket
  Konu Adı: The Lives of Others | Başkalarının Hayatı | 2006 | 720p | BluRay | x264 | DuaL : 18 Nisan 2011, 12:13:52
static_reactor

Administrator
*

Puan: 10762
Çevrimdışı Çevrimdışı

Cinsiyet: Bay
Mesaj Sayısı: 44.788





423 Mesajına Toplam
799 Kere Teşekkür Edildi

286 Mesajına Toplam
595 Kere Karma Verildi

Site
« : 18 Nisan 2011, 12:13:52 »





The Lives of Others | Başkalarının Hayatı | 2006 | 720p | BluRay | x264 | DuaL-ESiR HDM


IMDB:http://www.imdb...itle/tt0405094/

Kod:
General
UniqueID                         : 181954338223342699834010167521780122903 (0x88E3217F5B296448BC31233C849B4517)
Complete name                    : N:\Filmler\7 2 0 p   D u a L\The Lives of Others [Baskalarinin Hayati] (2006) BluRay 720p x264 DuaL\Baskalarinin.Hayati.2006.720p.BluRay.x264.DUAL-ESiR.HDM.mkv
Format                           : Matroska
File size                        : 4.34 GiB
Duration                         : 2h 17mn
Overall bit rate                 : 4 516 Kbps
Movie name                       : The.Lives.of.Others.2006.720p.BluRay.x264-ESiR
Encoded date                     : UTC 2010-10-13 20:32:07
Writing application              : mkvmerge v3.2.0 ('Beginnings') built on Feb 12 2010 16:46:17
Writing library                  : libebml v0.7.9 + libmatroska v0.8.1
Cover                            : Yes / Yes / Yes

Video
ID                               : 1
Format                           : AVC
Format/Info                      : Advanced Video Codec
Format profile                   : High@L5.1
Format settings, CABAC           : Yes
Format settings, ReFrames        : 9 frames
Codec ID                         : V_MPEG4/ISO/AVC
Duration                         : 2h 17mn
Bit rate                         : 3 810 Kbps
Width                            : 1 280 pixels
Height                           : 540 pixels
Display aspect ratio             : 2.35:1
Frame rate                       : 24.000 fps
Color space                      : YUV
Chroma subsampling               : 4:2:0
Bit depth                        : 8 bits
Scan type                        : Progressive
Bits/(Pixel*Frame)               : 0.230
Stream size                      : 3.58 GiB (82%)
Title                            : The Lives of Others
Writing library                  : x264 core 56 svn-667C
Encoding settings                : cabac=1 / ref=6 / deblock=1:-4:-4 / analyse=0x3:0x133 / me=umh / subme=7 / brdo=1 / mixed_ref=1 / me_range=16 / chroma_me=1 / trellis=0 / 8x8dct=1 / cqm=2 / deadzone=4,4 / chroma_qp_offset=0 / threads=3 / nr=0 / decimate=0 / mbaff=0 / bframes=4 / b_pyramid=1 / b_adapt=1 / b_bias=0 / direct=1 / wpredb=1 / bime=1 / keyint=250 / keyint_min=25 / scenecut=40(pre) / rc=2pass / bitrate=3810 / ratetol=1.0 / rceq='blurCplx^(1-qComp)' / qcomp=0.60 / qpmin=10 / qpmax=51 / qpstep=4 / cplxblur=20.0 / qblur=0.5 / ip_ratio=1.40 / pb_ratio=1.30 / aq=1:0.5:13.0
Language                         : German

Audio #1
ID                               : 2
Format                           : AC-3
Format/Info                      : Audio Coding 3
Mode extension                   : CM (complete main)
Codec ID                         : A_AC3
Duration                         : 2h 17mn
Bit rate mode                    : Constant
Bit rate                         : 448 Kbps
Channel(s)                       : 6 channels
Channel positions                : Front: L C R, Side: L R, LFE
Sampling rate                    : 48.0 KHz
Bit depth                        : 16 bits
Compression mode                 : Lossy
Video delay                      : 8s 200ms
Stream size                      : 441 MiB (10%)
Title                            : www.DynamicTR.com
Language                         : Turkish

Audio #2
ID                               : 3
Format                           : AC-3
Format/Info                      : Audio Coding 3
Mode extension                   : CM (complete main)
Codec ID                         : A_AC3
Duration                         : 2h 17mn
Bit rate mode                    : Constant
Bit rate                         : 256 Kbps
Channel(s)                       : 6 channels
Channel positions                : Front: L C R, Side: L R, LFE
Sampling rate                    : 48.0 KHz
Bit depth                        : 16 bits
Compression mode                 : Lossy
Stream size                      : 252 MiB (6%)
Title                            : www.DynamicTR.com
Language                         : German

Text #1
ID                               : 4
Format                           : UTF-8
Codec ID                         : S_TEXT/UTF8
Codec ID/Info                    : UTF-8 Plain Text
Title                            : www.DynamicTR.com
Language                         : Turkish

Text #2
ID                               : 5
Format                           : ASS
Codec ID                         : S_TEXT/ASS
Codec ID/Info                    : Advanced Sub Station Alpha
Compression mode                 : Lossless
Title                            : www.DynamicTR.com
Language                         : English

Text #3
ID                               : 6
Format                           : ASS
Codec ID                         : S_TEXT/ASS
Codec ID/Info                    : Advanced Sub Station Alpha
Compression mode                 : Lossless
Title                            : www.DynamicTR.com
Language                         : Romanian

Text #4
ID                               : 7
Format                           : ASS
Codec ID                         : S_TEXT/ASS
Codec ID/Info                    : Advanced Sub Station Alpha
Compression mode                 : Lossless
Title                            : www.DynamicTR.com
Language                         : Swedish

Text #5
ID                               : 8
Format                           : ASS
Codec ID                         : S_TEXT/ASS
Codec ID/Info                    : Advanced Sub Station Alpha
Compression mode                 : Lossless
Title                            : www.DynamicTR.com
Language                         : Danish

Text #6
ID                               : 9
Format                           : ASS
Codec ID                         : S_TEXT/ASS
Codec ID/Info                    : Advanced Sub Station Alpha
Compression mode                 : Lossless
Title                            : www.DynamicTR.com
Language                         : Spanish

Text #7
ID                               : 10
Format                           : ASS
Codec ID                         : S_TEXT/ASS
Codec ID/Info                    : Advanced Sub Station Alpha
Compression mode                 : Lossless
Title                            : www.DynamicTR.com
Language                         : Hungarian

 





http://www.file....HDM.part01.rar
http://www.file....HDM.part02.rar
http://www.file....HDM.part03.rar
http://www.file....HDM.part04.rar
http://www.file....HDM.part05.rar
http://www.file....HDM.part06.rar
http://www.file....HDM.part07.rar
http://www.file....HDM.part08.rar
http://www.file....HDM.part09.rar
http://www.file....HDM.part10.rar

Kod:
http://www.fileserve.com/file/cQ4RQSY/Baskalarinin.Hayati.(The.Lives.of.Others).2006_www.DynamicTR.com_720p.BluRay.x264.DUAL-ESiR.HDM.part01.rar
http://www.fileserve.com/file/edeRuAv/Baskalarinin.Hayati.(The.Lives.of.Others).2006_www.DynamicTR.com_720p.BluRay.x264.DUAL-ESiR.HDM.part02.rar
http://www.fileserve.com/file/sUzn68u/Baskalarinin.Hayati.(The.Lives.of.Others).2006_www.DynamicTR.com_720p.BluRay.x264.DUAL-ESiR.HDM.part03.rar
http://www.fileserve.com/file/5sYWDQg/Baskalarinin.Hayati.(The.Lives.of.Others).2006_www.DynamicTR.com_720p.BluRay.x264.DUAL-ESiR.HDM.part04.rar
http://www.fileserve.com/file/Vrf8vC7/Baskalarinin.Hayati.(The.Lives.of.Others).2006_www.DynamicTR.com_720p.BluRay.x264.DUAL-ESiR.HDM.part05.rar
http://www.fileserve.com/file/ppPyPcy/Baskalarinin.Hayati.(The.Lives.of.Others).2006_www.DynamicTR.com_720p.BluRay.x264.DUAL-ESiR.HDM.part06.rar
http://www.fileserve.com/file/GxC8B4A/Baskalarinin.Hayati.(The.Lives.of.Others).2006_www.DynamicTR.com_720p.BluRay.x264.DUAL-ESiR.HDM.part07.rar
http://www.fileserve.com/file/v8nktRZ/Baskalarinin.Hayati.(The.Lives.of.Others).2006_www.DynamicTR.com_720p.BluRay.x264.DUAL-ESiR.HDM.part08.rar
http://www.fileserve.com/file/75e896m/Baskalarinin.Hayati.(The.Lives.of.Others).2006_www.DynamicTR.com_720p.BluRay.x264.DUAL-ESiR.HDM.part09.rar
http://www.fileserve.com/file/yXYwCPa/Baskalarinin.Hayati.(The.Lives.of.Others).2006_www.DynamicTR.com_720p.BluRay.x264.DUAL-ESiR.HDM.part10.rar
TorrentAraBul.com - The Lives of Others
« Son Düzenleme: 18 Nisan 2011, 12:28:33 Gönderen: static_reactor » Kayıtlı

Alıntı Olarak Verilen Filmlerde Mağdur Olmamanız İçin İlk Partı İndirip, Kalite ve Şifre Kontrolunu Yapınız.
static_reactor Nickli Üyemize Teşekkür Eden 3 Kullanıcı: Storm-man01 (18 Nisan 2011, 19:58:49), banuk1970 (18 Nisan 2011, 14:12:56), trakonya76 (18 Nisan 2011, 14:11:54)
static_reactor Nickli Üyemize Karma Veren 3 Kullanıcı: Storm-man01 [+](18 Nisan 2011, 19:58:49), banuk1970 [+](18 Nisan 2011, 14:12:56), trakonya76 [+](18 Nisan 2011, 14:11:54)

  Konu Adı: The Lives of Others | Başkalarının Hayatı | 2006 | 720p | BluRay | x264 | DuaL Yanıtla #1 : 18 Nisan 2011, 14:13:18
banuk1970


Profesyonel Üye
*

Puan: 3639
Çevrimdışı Çevrimdışı

Cinsiyet: Bayan
Mesaj Sayısı: 5.595





1108 Mesajına Toplam
1762 Kere Teşekkür Edildi

792 Mesajına Toplam
1193 Kere Karma Verildi

« Yanıtla #1 : 18 Nisan 2011, 14:13:18 »

Çok güzel bir film herkese tavsiye ederim
Kayıtlı


  Konu Adı: The Lives of Others | Başkalarının Hayatı | 2006 | 720p | BluRay | x264 | DuaL Yanıtla #2 : 18 Nisan 2011, 14:21:32
trakonya76


Global Moderator
*

Puan: 2565
Çevrimdışı Çevrimdışı

Cinsiyet: Bay
Mesaj Sayısı: 2.087




KAYBETMEK BAŞLAMAKTIR!!!!!!!!


666 Mesajına Toplam
975 Kere Teşekkür Edildi

406 Mesajına Toplam
564 Kere Karma Verildi

« Yanıtla #2 : 18 Nisan 2011, 14:21:32 »

ellerine sağlık statik kardeşim
Kayıtlı

  Sayfa: [1]
Cevap Ver Yeni Konu Yeni Anket
Gitmek istediğiniz yer:  






SimplePortal 2.3.3 © 2008-2010, SimplePortal